Co znamená ve videích seznam soubor nsfw/nsfw/…json?

Hamparle

  • ***
  • 186
  • junior developer ucho
    • Zobrazit profil
    • E-mail
Když si najdu na nějaké stránce seznam/novinky atd iframe s videem, tak jeho "metadatový soubor" https://v12-a.sdn.cz/~SEC1~expire-*~scope-video~*/v_11/vmd/*?fl=mdk v json odpovědi obsahuje ve branchi
 :data -> :nsfw hodnotu :url = "../*/nsfw/nsfw/*/0/*.json"

úryvek (nemám pretty print modul, takže snad to neurazí ctěné oči javascriptařovo):
Citace
{"nsfw": 0.003582477569580078, "pts_time": 273}, "275":
 {"nsfw": 0.007866263389587402, "pts_time": 274}, "276":
 {"nsfw": 0.174494206905365, "pts_time": 275}, "277":
 {"nsfw": 0.004486262798309326, "pts_time": 276}, "278":
 {"nsfw": 0.020846843719482422, "pts_time": 277}, "279":
 {"nsfw": 0.009743452072143555, "pts_time": 278}, "524":
 {"nsfw": 0.0024132728576660156, "pts_time": 523}, "525":
 {"nsfw": 0.004444777965545654, "pts_time": 524}, "526":


Co to jako znamená? Jako podíl (v rozmezí nula až jedna... například vtip o blondýnkách 0.2, vtip o blacklistech se blížící se 0.8, vtipy o globálním oteplování 1.0, vtipy  v komixech od hovorky 0.000) nekorektního humoru v daném framu videa?


PS:
co ve zdrojovém kódu znamenají procenta?
např <!---0.737010%-->
To znamená hladina alkoholu v stacku autora v době psaní na daném místě zdrojového HTML kódu? Nebo vytížení procesoru  PSPadu u daného místa v kódu?
« Poslední změna: 11. 10. 2020, 22:24:37 od Petr Krčmář »


Re:co znamená ve videích seznam soubor nsfw/nsfw/...json?
« Odpověď #1 kdy: 11. 10. 2020, 21:21:48 »
Zrejme score nejakyho algoritmu pro detekci zavadnyho obsahu, nahoty, atd...

Re:Co znamená ve videích seznam soubor nsfw/nsfw/…json?
« Odpověď #2 kdy: 12. 10. 2020, 10:04:47 »
jedná se o skore pornodetektoru

Re:Co znamená ve videích seznam soubor nsfw/nsfw/…json?
« Odpověď #3 kdy: 12. 10. 2020, 11:23:25 »
NSFW - "Not safe for work" se pouziva podobne jako spoiler na forech se smisenym obsahem pro schovani explicitich obrazku pri serfovani v praci. Muzes v klidu skrolovat obsah a nedostanes se do situace, ze nahodny kolemjdouci uvidi na zrovna tvem monitoru nahou ***, kterou nekdo poslal.